Remote Control Collection | Hunter.x.Hunter.E01-E13.German.DTS.5.1.DL.1080p.BluRay.x264-AST4u | La théorie du Y
301736.com - The Largest Bittorent System Login   |    Register
Latest Articles
Most searched
Hot torrents
Movie Torrents
View Torrent Info: Mission: Impossible - Fallout (2018) [720p] [YTS] [YIFY]
View Torrent Info: Crazy Rich Asians (2018) [720p] [YTS] [YIFY]
View Torrent Info: Outlaw King (2018) [720p] [YTS] [YIFY]
View Torrent Info: Kin (2018) [720p] [YTS] [YIFY]
View Torrent Info: River Runs Red (2018) [720p] [YTS] [YIFY]
View Torrent Info: Time Freak (2018) [720p] [YTS] [YIFY]
View Torrent Info: Crazy Rich Asians (2018) [720p] [YTS] [YIFY]
View Torrent Info: The Miseducation of Cameron Post (2018) [720p] [YTS] [YIFY]
View Torrent Info: In a Relationship (2018) [720p] [YTS] [YIFY]
View Torrent Info: Kin (2018) [720p] [YTS] [YIFY]
Hot torrents
TV Torrents
View Torrent Info: The.Walking.Dead.S09E06.HDTV.x264-SVA[eztv]
View Torrent Info: Supergirl.S04E05.HDTV.x264-SVA[eztv]
View Torrent Info: The.Last.Ship.S05E10.WEBRip.x264-TBS[eztv]
View Torrent Info: NCIS.Los.Angeles.S10E07.HDTV.x264-SVA[eztv]
View Torrent Info: Greys.Anatomy.S15E07.HDTV.x264-KILLERS[eztv]
View Torrent Info: Last.Week.Tonight.with.John.Oliver.S05E29.WEB.x264-PHOENiX[eztv]
View Torrent Info: Madam.Secretary.S05E06.HDTV.x264-KILLERS[eztv]
View Torrent Info: Family.Guy.S17E06.WEB.x264-TBS[eztv]
View Torrent Info: The.Simpsons.S30E06.HDTV.x264-KILLERS[eztv]
View Torrent Info: Young.Sheldon.S02E08.HDTV.x264-KILLERS[eztv]
301736.com > Categories > Movies torrents > Bollywood/Desi torrents


Browse Movies torrents

Thugs of Hindostan (2018) Hindi 720p pDVDRip x264 1.1GB -1337xHD torrent



Download torrent: Download Thugs of Hindostan (2018) Hindi 720p pDVDRip x264 1.1GB -1337xHD torrent Magnet link Bookmark Torrent: Thugs of Hindostan (2018) Hindi 720p pDVDRip x264 1.1GB -1337xHD Thugs of Hindostan (2018) Hindi 720p pDVDRip x264 1.1GB -1337xHD torrent | if not working, try instead: Magnet Link
Info hash: 571C27F2F3AB6845E6ABA2FF0C617505D72135AC
Category: Categories > Movies torrents > Bollywood/Desi torrents
Trackers:
0    View all torrent trackers >
Health:
 seeds: 0 ,  leechers: 0 |  Update >
Total Size: 1.10 GB
Torrent status: Added by trusted uploader Added by trusted uploader Trusted Uploader Site Friend Superman Sun
Uploader: Trusted Uploader Site Friend Superman Sun
Torrent added: 2018-11-08 14:11:16
 

Download Thugs of Hindostan (2018) Hindi 720p pDVDRip x264 1.1GB -1337xHD torrent if not working, try downloading torrent using Download Thugs of Hindostan (2018) Hindi 720p pDVDRip x264 1.1GB -1337xHD via Magnet Link




Torrent Description

http://hdfilmboss.mobi/
http://1337xhd.com/



Official Website http://hdfilmboss.mobi/
Official Website http://1337xhd.com/



General
Format version : Version 4
File size : 1.07 GiB
Duration : 2 h 34 min
Overall bit rate : 990 kb/s
Movie name : HDFilmBoss.Mobi
Encoded date : UTC 2018-11-08 12:27:34
Writing application : mkvmerge v28.2.0 ('The Awakening') 64-bit
Writing library : libebml v1.3.6 + libmatroska v1.4.9

Video
ID : 1
Format : AVC
Format/Info : Advanced Video Codec
Format profile : [email protected]
Format settings : CABAC / 4 Ref Frames
Format settings, CABAC : Yes
Format settings, RefFrames : 4 frames
Codec ID : V_MPEG4/ISO/AVC
Duration : 2 h 34 min
Bit rate : 933 kb/s
Width : 1 280 pixels
Height : 544 pixels
Display aspect ratio : 2.35:1
Frame rate mode : Constant
Frame rate : 25.000 FPS
Color space : YUV
Chroma subsampling : 4:2:0
Bit depth : 8 bits
Scan type : Progressive
Bits/(Pixel*Frame) : 0.054
Stream size : 1.01 GiB (94%)
Title : 1337xHD.Com
Writing library : x264 core 148 r2643 5c65704
Language : Hindi
Default : Yes
Forced : No

Audio
ID : 2
Format : AAC LC
Format/Info : Advanced Audio Codec Low Complexity
Codec ID : A_AAC-2
Duration : 2 h 34 min
Bit rate : 56.0 kb/s
Channel(s) : 1 channel
Channel layout : C
Sampling rate : 22.05 kHz
Frame rate : 21.533 FPS (1024 SPF)
Compression mode : Lossy
Delay relative to video : -93 ms
Stream size : 62.1 MiB (6%)
Title : 1337xHD.Com
Language : Hindi
Default : Yes
Forced : No













#1337xHD -> To avoid fakes, ALWAYS check that the torrent was added on 301736.com by 1337xHD

http://301736.com/



Download Thugs of Hindostan (2018) Hindi 720p pDVDRip x264 1.1GB -1337xHD torrent


Comments (please add your comment)
No comments



Home - Browse Torrents - Upload Torrent - Stat - Forum - FAQ - Login
301736.com is in compliance with copyrights
2006-2018 301736.com
Sitemap