Multimedia | Rogue Agent (2015) DVDRip Full English Movie Watch Online Watch Rogue Agent (2015) DVDRip Full English Movie & Download Free. English Movie Rogue Agent (2015) DVDRip Full Cast and Crew Details. Film Name :- Rogue Agent (2015) DVDRip Film Directed By :- Kai Barry Film Written by -- Not Available Starring of the Film :- James Floyd, Noémie Merlant, Anthony LaPaglia Genres :- Crime, Drama, Thriller Origin Country -- USA Film Language -- English   Option -1 NetuTV Player 1 Option -2 WatchVideo Player 2 Option ... | Fujishiro-san Kei.
301736.com - The Largest Bittorent System Login   |    Register
Latest Articles
Most searched
Hot torrents
Movie Torrents
View Torrent Info: Mission: Impossible - Fallout (2018) [720p] [YTS] [YIFY]
View Torrent Info: Crazy Rich Asians (2018) [720p] [YTS] [YIFY]
View Torrent Info: Kin (2018) [720p] [YTS] [YIFY]
View Torrent Info: Robin Hood The Rebellion (2018) [720p] [YTS] [YIFY]
View Torrent Info: The Miseducation of Cameron Post (2018) [720p] [YTS] [YIFY]
View Torrent Info: Along with the Gods: The Last 49 Days (2018) [720p] [YTS] [YIFY]
View Torrent Info: Dog Days (2018) [720p] [YTS] [YIFY]
View Torrent Info: Alone We Fight (2018) [720p] [YTS] [YIFY]
View Torrent Info: Patrick (2018) [720p] [YTS] [YIFY]
View Torrent Info: Welcome to Mercy (2018) [720p] [YTS] [YIFY]
Hot torrents
TV Torrents
View Torrent Info: The.Big.Bang.Theory.S12E07.HDTV.x264-SVA[eztv]
View Torrent Info: Chicago.PD.S06E07.HDTV.x264-SVA[eztv]
View Torrent Info: Arrow.S07E04.HDTV.x264-SVA
View Torrent Info: How.to.Get.Away.with.Murder.S05E06.HDTV.x264-SVA[eztv]
View Torrent Info: Greys.Anatomy.S15E07.HDTV.x264-KILLERS[eztv]
View Torrent Info: The.Big.Bang.Theory.S12E07.XviD-AFG[eztv]
View Torrent Info: Supernatural.S14E04.HDTV.x264-SVA[eztv]
View Torrent Info: Modern.Family.S10E07.HDTV.x264-SVA[eztv]
View Torrent Info: Criminal.Minds.S14E06.XviD-AFG[eztv]
View Torrent Info: The.Last.Ship.S05E09.XviD-AFG
301736.com > Categories > Movies torrents > Bollywood/Desi torrents


Browse Movies torrents

Thugs of Hindostan (2018) Hindi 720p Desi Pre DVDRip [Audio Line] x264 1.4GB [No Watermark] -1337xHD torrent



Download torrent: Download Thugs of Hindostan (2018) Hindi 720p Desi Pre DVDRip [Audio Line] x264 1.4GB [No Watermark] -1337xHD torrent Magnet link Bookmark Torrent: Thugs of Hindostan (2018) Hindi 720p Desi Pre DVDRip [Audio Line] x264 1.4GB [No Watermark] -1337xHD Thugs of Hindostan (2018) Hindi 720p Desi Pre DVDRip [Audio Line] x264 1.4GB [No Watermark] -1337xHD torrent | if not working, try instead: Magnet Link
Info hash: EF6FDBEEF41A9F374DCA34305A57C555BC4550D8
Category: Categories > Movies torrents > Bollywood/Desi torrents
Trackers:
0    View all torrent trackers >
Health:
 seeds: 4 ,  leechers: 0 |  Update >
Total Size: 1.30 GB
Torrent status: Added by trusted uploader Added by trusted uploader Trusted Uploader Site Friend Superman Sun
Uploader: Trusted Uploader Site Friend Superman Sun
Torrent added: 2018-11-08 18:10:28
 

Download Thugs of Hindostan (2018) Hindi 720p Desi Pre DVDRip [Audio Line] x264 1.4GB [No Watermark] -1337xHD torrent if not working, try downloading torrent using Download Thugs of Hindostan (2018) Hindi 720p Desi Pre DVDRip [Audio Line] x264 1.4GB [No Watermark] -1337xHD via Magnet Link




Torrent Description

http://hdfilmboss.mobi/
http://1337xhd.com/



Official Website http://hdfilmboss.mobi/
Official Website http://1337xhd.com/



General
Format : Matroska
Format version : Version 4
File size : 1.34 GiB
Duration : 2 h 33 min
Overall bit rate : 1 246 kb/s
Movie name : HDFilmBoss.Mobi
Encoded date : UTC 2018-11-08 16:21:57
Writing application : mkvmerge v28.2.0 ('The Awakening') 64-bit
Writing library : libebml v1.3.6 + libmatroska v1.4.9

Video
ID : 1
Format : AVC
Format/Info : Advanced Video Codec
Format profile : [email protected]
Format settings : CABAC / 4 Ref Frames
Format settings, CABAC : Yes
Format settings, RefFrames : 4 frames
Codec ID : V_MPEG4/ISO/AVC
Duration : 2 h 33 min
Bit rate : 1 183 kb/s
Width : 1 280 pixels
Height : 560 pixels
Display aspect ratio : 2.25:1
Frame rate mode : Constant
Frame rate : 25.000 FPS
Color space : YUV
Chroma subsampling : 4:2:0
Bit depth : 8 bits
Scan type : Progressive
Bits/(Pixel*Frame) : 0.066
Stream size : 1.27 GiB (95%)
Title : 1337xHD.Com
Writing library : x264 core 148 r2643 5c65704
Language : Hindi
Default : Yes
Forced : No

Audio
ID : 2
Format : AAC LC
Format/Info : Advanced Audio Codec Low Complexity
Codec ID : A_AAC-2
Duration : 2 h 33 min
Bit rate : 64.0 kb/s
Channel(s) : 1 channel
Channel layout : C
Sampling rate : 44.1 kHz
Frame rate : 43.066 FPS (1024 SPF)
Compression mode : Lossy
Delay relative to video : -46 ms
Stream size : 70.3 MiB (5%)
Title : 1337xHD.Com
Language : Hindi
Default : Yes
Forced : No















#1337xHD -> To avoid fakes, ALWAYS check that the torrent was added on 301736.com by 1337xHD

http://301736.com/



Download Thugs of Hindostan (2018) Hindi 720p Desi Pre DVDRip [Audio Line] x264 1.4GB [No Watermark] -1337xHD torrent


Comments (please add your comment)
No comments



Home - Browse Torrents - Upload Torrent - Stat - Forum - FAQ - Login
301736.com is in compliance with copyrights
2006-2018 301736.com
Sitemap