Star Trek: Voyager (20) | تحميل APK | Damage Inc Pacific Squadron (Xbox 360)
301736.com - The Largest Bittorent System Login   |    Register
Latest Articles
Most searched
Hot torrents
Movie Torrents
View Torrent Info: Searching (2018) [720p] [YTS] [YIFY]
View Torrent Info: Outlaw King (2018) [720p] [YTS] [YIFY]
View Torrent Info: River Runs Red (2018) [720p] [YTS] [YIFY]
View Torrent Info: Time Freak (2018) [720p] [YTS] [YIFY]
View Torrent Info: In a Relationship (2018) [720p] [YTS] [YIFY]
View Torrent Info: Not Cinderella's Type (2018) [720p] [YTS] [YIFY]
View Torrent Info: The Librarian: Quest for the Spear (2004) [720p] [YTS] [YIFY]
View Torrent Info: The Librarian: Return to King Solomon's Mines (2006) [720p] [YTS] [YIFY]
View Torrent Info: Kevin Smith: Silent But Deadly (2018) [720p] [YTS] [YIFY]
View Torrent Info: The Librarian III: The Curse of the Judas Chalice (2008) [720p] [YTS] [YIFY]
Hot torrents
TV Torrents
View Torrent Info: The.Walking.Dead.S09E06.HDTV.x264-SVA[eztv]
View Torrent Info: The.Flash.2014.S05E05.HDTV.x264-SVA[eztv]
View Torrent Info: Arrow.S07E05.HDTV.x264-SVA[eztv]
View Torrent Info: DCs.Legends.of.Tomorrow.S04E04.HDTV.x264-SVA[eztv]
View Torrent Info: The.Good.Doctor.S02E07.HDTV.x264-KILLERS[eztv]
View Torrent Info: Supergirl.S04E05.HDTV.x264-SVA[eztv]
View Torrent Info: The.Last.Ship.S05E10.WEBRip.x264-TBS[eztv]
View Torrent Info: fbi.s01e07.hdtv.x264-sva[eztv]
View Torrent Info: The.Rookie.S01E04.HDTV.x264-KILLERS[eztv]
View Torrent Info: Manifest.S01E07.HDTV.x264-CRAVERS[eztv]
301736.com > Categories > Movies torrents > Bollywood/Desi torrents


Browse Movies torrents

Laila Majnu (2018) Hindi 720p WEB-DL DD5.1 H264 AC3 1.3GB ESub -1337xHD torrent



Download torrent: Download Laila Majnu (2018) Hindi 720p WEB-DL DD5.1 H264 AC3 1.3GB ESub -1337xHD torrent Magnet link Bookmark Torrent: Laila Majnu (2018) Hindi 720p WEB-DL DD5.1 H264 AC3 1.3GB ESub -1337xHD Laila Majnu (2018) Hindi 720p WEB-DL DD5.1 H264 AC3 1.3GB ESub -1337xHD torrent | if not working, try instead: Magnet Link
Info hash: 3A7215FD94E501792A303070B2B77E6D916A2948
Category: Categories > Movies torrents > Bollywood/Desi torrents
Trackers:
0    View all torrent trackers >
Health:
 seeds: 12 ,  leechers: 0 |  Update >
Total Size: 1.30 GB
Torrent status: Added by trusted uploader Added by trusted uploader Trusted Uploader Site Friend Superman Sun
Uploader: Trusted Uploader Site Friend Superman Sun
Torrent added: 2018-11-09 04:30:17
 

Download Laila Majnu (2018) Hindi 720p WEB-DL DD5.1 H264 AC3 1.3GB ESub -1337xHD torrent if not working, try downloading torrent using Download Laila Majnu (2018) Hindi 720p WEB-DL DD5.1 H264 AC3 1.3GB ESub -1337xHD via Magnet Link




Torrent Description

http://hdfilmboss.mobi/
http://1337xhd.com/



Official Website http://hdfilmboss.mobi/
Official Website http://1337xhd.com/



General
Complete name : P:\1337xHD.Com-Laila Majnu (2018) indi 720p WEB-DL DD5.1 H264 AC3 1.2GB ESub.mp4
Format : MPEG-4
Format profile : Base Media
Codec ID : isom (isom/iso2/avc1/mp41)
File size : 1.29 GiB
Duration : 2 h 12 min
Overall bit rate : 1 393 kb/s
Movie name : WWW.HDFilmBoss.Mobi
Writing application : Lavf58.12.100

Video
ID : 1
Format : AVC
Format/Info : Advanced Video Codec
Format profile : [email protected]
Format settings : CABAC / 4 Ref Frames
Format settings, CABAC : Yes
Format settings, RefFrames : 4 frames
Codec ID : avc1
Codec ID/Info : Advanced Video Coding
Duration : 2 h 12 min
Bit rate : 1 260 kb/s
Width : 1 274 pixels
Height : 720 pixels
Display aspect ratio : 16:9
Frame rate mode : Constant
Frame rate : 25.000 FPS
Color space : YUV
Chroma subsampling : 4:2:0
Bit depth : 8 bits
Scan type : Progressive
Bits/(Pixel*Frame) : 0.055
Stream size : 1.16 GiB (90%)
Title : WWW.1337xHD.Com
Writing library : x264 core 148 r2643 5c65704
Codec configuration box : avcC

Audio
ID : 2
Format : AAC LC
Format/Info : Advanced Audio Codec Low Complexity
Codec ID : mp4a-40-2
Duration : 2 h 12 min
Bit rate mode : Constant
Bit rate : 128 kb/s
Channel(s) : 1 channel
Channel layout : C
Sampling rate : 44.1 kHz
Frame rate : 43.066 FPS (1024 SPF)
Compression mode : Lossy
Stream size : 121 MiB (9%)
Title : WWW.1337xHD.Com
Default : Yes
Alternate group : 1













#1337xHD -> To avoid fakes, ALWAYS check that the torrent was added on 301736.com by 1337xHD

http://301736.com/



Download Laila Majnu (2018) Hindi 720p WEB-DL DD5.1 H264 AC3 1.3GB ESub -1337xHD torrent


Comments (please add your comment)
No comments



Home - Browse Torrents - Upload Torrent - Stat - Forum - FAQ - Login
301736.com is in compliance with copyrights
2006-2018 301736.com
Sitemap