India's Best Judwaah | 少年ジャンプ+最強人気オリジナルマンガや電子書籍、アニメ原作コミックが無料で毎日更新の漫画雑誌アプリ | 烽火芳菲BD中英字幕 mp4
301736.com - The Largest Bittorent System Login   |    Register
Latest Articles
Most searched
Hot torrents
Movie Torrents
View Torrent Info: Mission: Impossible - Fallout (2018) [720p] [YTS] [YIFY]
View Torrent Info: Crazy Rich Asians (2018) [720p] [YTS] [YIFY]
View Torrent Info: Kin (2018) [720p] [YTS] [YIFY]
View Torrent Info: Robin Hood The Rebellion (2018) [720p] [YTS] [YIFY]
View Torrent Info: The Miseducation of Cameron Post (2018) [720p] [YTS] [YIFY]
View Torrent Info: Dog Days (2018) [720p] [YTS] [YIFY]
View Torrent Info: Alone We Fight (2018) [720p] [YTS] [YIFY]
View Torrent Info: Patrick (2018) [720p] [YTS] [YIFY]
View Torrent Info: The Veil (2017) [720p] [YTS] [YIFY]
View Torrent Info: Welcome to Mercy (2018) [720p] [YTS] [YIFY]
Hot torrents
TV Torrents
View Torrent Info: Greys.Anatomy.S15E07.HDTV.x264-KILLERS[eztv]
View Torrent Info: Arrow.S07E04.HDTV.x264-SVA
View Torrent Info: Chicago.PD.S06E07.HDTV.x264-SVA[eztv]
View Torrent Info: The.Last.Ship.S05E09.XviD-AFG
View Torrent Info: Criminal.Minds.S14E06.XviD-AFG[eztv]
View Torrent Info: The.Big.Bang.Theory.S12E08.HDTV.x264-SVA[eztv]
View Torrent Info: Modern.Family.S10E07.HDTV.x264-SVA[eztv]
View Torrent Info: Blindspot.S04E04.HDTV.x264-SVA[eztv]
View Torrent Info: DCs.Legends.of.Tomorrow.S04E03.HDTV.x264-KILLERS[eztv]
View Torrent Info: Young.Sheldon.S02E08.HDTV.x264-KILLERS[eztv]
301736.com > Categories > Movies torrents > Bollywood/Desi torrents


Browse Movies torrents

Laila Majnu 2018 Hindi 720p HDRip x264 AAC { TaRa }.mkv torrent



Download torrent: Download Laila Majnu 2018 Hindi 720p HDRip x264 AAC { TaRa }.mkv torrent Magnet link Bookmark Torrent: Laila Majnu 2018 Hindi 720p HDRip x264 AAC { TaRa }.mkv Laila Majnu 2018 Hindi 720p HDRip x264 AAC { TaRa }.mkv torrent | if not working, try instead: Magnet Link
Info hash: E2053A49BBD829D695B79B9B8FFAB3FAC54DE01D
Category: Categories > Movies torrents > Bollywood/Desi torrents
Trackers:
14    View all torrent trackers >
Health:
 seeds: 383 ,  leechers: 15 |  Update >
Total Size: 1.30 GB
Torrent status: Added by trusted uploader Added by trusted uploader Trusted Uploader Site Friend Superman Sun
Uploader: Trusted Uploader Site Friend Superman Sun
Torrent added: 2018-11-09 05:56:05
 

Download Laila Majnu 2018 Hindi 720p HDRip x264 AAC { TaRa }.mkv torrent if not working, try downloading torrent using Download Laila Majnu 2018 Hindi 720p HDRip x264 AAC { TaRa }.mkv via Magnet Link




Torrent Description


Laila Majnu 2018 Hindi 720p HDRip x264 AAC { TaRa }.mkv


===================================================================
General
Complete name : Laila Majnu 2018 Hindi 720p HDRip x264 AAC { TaRa }.mkv
Format : Matroska
Format version : Version 4
File size : 1.29 GiB
Duration : 2 h 12 min
Overall bit rate : 1 393 kb/s
===================================================================
Video
ID : 1
Format : AVC
Format/Info : Advanced Video Codec
Format profile : [email protected]
Format settings : CABAC / 4 Ref Frames
Format settings, CABAC : Yes
Format settings, ReFrames : 4 frames
Codec ID : V_MPEG4/ISO/AVC
Duration : 2 h 12 min
Bit rate : 1 266 kb/s
Width : 1 280 pixels
Height : 544 pixels
Display aspect ratio : 2.35:1
Frame rate mode : Constant
Frame rate : 25.000 FPS
Color space : YUV
Chroma subsampling : 4:2:0
Bit depth : 8 bits
Scan type : Progressive
Bits/(Pixel*Frame) : 0.073
Stream size : 1.17 GiB (91%)
Title : .....::::: TaRa :::::.....
Language : Hindi
Default : Yes
Forced : No
===================================================================
Audi=
ID : 2
Format : AAC LC
Format/Info : Advanced Audio Codec Low Complexity
Codec ID : A_AAC-2
Duration : 2 h 12 min
Bit rate : 125 kb/s
Channel(s) : 2 channels
Channel layout : L R
Sampling rate : 48.0 kHz
Frame rate : 46.875 FPS (1024 SPF)
Compression mode : Lossy
Delay relative to video : -21 ms
Stream size : 118 MiB (9%)
Title : .....::::: TaRa :::::.....
Language : Hindi
Default : Yes
Forced : No
===================================================================









































#SkTara -> To avoid fakes, ALWAYS check that the torrent was added on 301736.com by SkTara

http://301736.com/



Download Laila Majnu 2018 Hindi 720p HDRip x264 AAC { TaRa }.mkv torrent


Comments (please add your comment)
No comments



Home - Browse Torrents - Upload Torrent - Stat - Forum - FAQ - Login
301736.com is in compliance with copyrights
2006-2018 301736.com
Sitemap