Asalto En La Noche BluRayRip AC3 5.1 | Watch Now | DVD Kshanam (2016)
301736.com - The Largest Bittorent System Login   |    Register
Latest Articles
Most searched
Hot torrents
Movie Torrents
View Torrent Info: Mission: Impossible - Fallout (2018) [720p] [YTS] [YIFY]
View Torrent Info: Crazy Rich Asians (2018) [720p] [YTS] [YIFY]
View Torrent Info: Kin (2018) [720p] [YTS] [YIFY]
View Torrent Info: Robin Hood The Rebellion (2018) [720p] [YTS] [YIFY]
View Torrent Info: The Miseducation of Cameron Post (2018) [720p] [YTS] [YIFY]
View Torrent Info: Dog Days (2018) [720p] [YTS] [YIFY]
View Torrent Info: Alone We Fight (2018) [720p] [YTS] [YIFY]
View Torrent Info: Patrick (2018) [720p] [YTS] [YIFY]
View Torrent Info: The Veil (2017) [720p] [YTS] [YIFY]
View Torrent Info: Welcome to Mercy (2018) [720p] [YTS] [YIFY]
Hot torrents
TV Torrents
View Torrent Info: Young.Sheldon.S02E08.HDTV.x264-KILLERS[eztv]
View Torrent Info: The.Big.Bang.Theory.S12E08.HDTV.x264-SVA[eztv]
View Torrent Info: Arrow.S07E04.HDTV.x264-SVA
View Torrent Info: The.Big.Bang.Theory.S12E08.XviD-AFG[eztv]
View Torrent Info: Greys.Anatomy.S15E07.HDTV.x264-KILLERS[eztv]
View Torrent Info: Supernatural.S14E05.HDTV.x264-SVA[eztv]
View Torrent Info: The.Last.Ship.S05E09.XviD-AFG
View Torrent Info: Chicago.PD.S06E07.HDTV.x264-SVA[eztv]
View Torrent Info: Legacies.S01E03.HDTV.x264-SVA[eztv]
View Torrent Info: Criminal.Minds.S14E06.XviD-AFG[eztv]
301736.com > Categories > Movies torrents > Bollywood/Desi torrents


Browse Movies torrents

Mr & Mrs 420 Returns 2018 x264 720p SD Punjabi GOPISAHI torrent



Download torrent: Download Mr & Mrs 420 Returns 2018 x264 720p SD  Punjabi GOPISAHI torrent Magnet link Bookmark Torrent: Mr & Mrs 420 Returns 2018 x264 720p SD  Punjabi GOPISAHI Mr & Mrs 420 Returns 2018 x264 720p SD Punjabi GOPISAHI torrent | if not working, try instead: Magnet Link
Info hash: 459A6924D6A23FD67C4EC8BCBDFEC159DE746A78
Category: Categories > Movies torrents > Bollywood/Desi torrents
Trackers:
17    View all torrent trackers >
Health:
 seeds: 33 ,  leechers: 1 |  Update >
Total Size: 664.10 MB
Torrent status: Added by trusted uploader Added by trusted uploader Trusted Uploader Site Friend Superman Sun
Uploader: Trusted Uploader Site Friend Superman Sun
Torrent added: 2018-11-09 08:41:18
 

Download Mr & Mrs 420 Returns 2018 x264 720p SD  Punjabi GOPISAHI torrent if not working, try downloading torrent using Download Mr & Mrs 420 Returns 2018 x264 720p SD  Punjabi GOPISAHI via Magnet Link




Torrent Description

http://www.gopisahi.pw/

Format                         : Matroska
Format version                 : Version 4 / Version 2
File size                      : 664 MiB
Duration                       : 2 h 13 min
Overall bit rate               : 697 kb/s
Movie name                     : Mr & Mrs 420 Returns 2018 GOPISAHI

Video
Format                         : AVC
Codec ID                       : V_MPEG4/ISO/AVC
Duration                       : 2 h 13 min
Bit rate                       : 599 kb/s
Width                          : 1 280 pixels
Height                         : 534 pixels
Display aspect ratio           : 2.40:1
Frame rate mode                : Constant
Frame rate                     : 25.000 FPS
Color space                    : YUV
Chroma subsampling             : 4:2:0
Bit depth                      : 8 bits
Scan type                      : Progressive
Bits/(Pixel*Frame)             : 0.035
Stream size                    : 570 MiB (86%)
Title                          : GOPISAHI
Writing library                : x264 core 155 r2901 7d0ff22

Audio
Format                         : AAC
Format/Info                    : Advanced Audio Codec
Duration                       : 2 h 13 min
Bit rate                       : 96.0 kb/s
Channel(s)                     : 2 channels
Channel positions              : Front: L R
Sampling rate                  : 48.0 kHz
Frame rate                     : 46.875 FPS (1024 SPF)
Compression mode               : Lossy
Delay relative to video        : -21 ms
Stream size                    : 91.7 MiB (14%)
Title                          : GOPISAHI
Language                       : Panjabi





#PENDUDESI -> To avoid fakes, ALWAYS check that the torrent was added on 301736.com by PENDUDESI

http://301736.com/



Download Mr & Mrs 420 Returns 2018 x264 720p SD  Punjabi GOPISAHI torrent


Comments (please add your comment)
No comments



Home - Browse Torrents - Upload Torrent - Stat - Forum - FAQ - Login
301736.com is in compliance with copyrights
2006-2018 301736.com
Sitemap